extratorrent - A Fan Made Alternative Login   |   Register
Important Information
Registrations are open now
-------------------------------------

Please click here to register with Extratorrent2 to recieve latest updates, add bookmarks and to post comments.

Friends
Friends

1) ProxyFix

Extratorrent2 > Categories > TV > Game of Thrones (2011) Season 01 S01 (2160p BluRay x265 HEVC 10bit AAC 7.1 Joy) [UTR] torrent


Browse TV torrents

Game of Thrones (2011) Season 01 S01 (2160p BluRay x265 HEVC 10bit AAC 7.1 Joy) [UTR] torrent


Download torrent: Download Game of Thrones (2011) Season 01 S01 (2160p BluRay x265 HEVC 10bit AAC 7.1 Joy) [UTR] torrent Magnet link Bookmark Torrent: Game of Thrones (2011) Season 01 S01 (2160p BluRay x265 HEVC 10bit AAC 7.1 Joy) [UTR]   Game of Thrones (2011) Season 01 S01 (2160p BluRay x265 HEVC 10bit AAC 7.1 Joy) [UTR] torrent
Info hash: 0D94AD9F78F43EA33632FBBB8CDAD7413ACB08DE
Category: Categories > TV
Trackers:
View all torrent trackers >
Health:
 seeds: 14 ,  leechers: 17 |  Update >
Torrent language: Creating the Dorhraki Language.mkv (36.6 MB) Creating the Dorhraki Language.mkv (36.6 MB)
Total Size: 20.8 GB
Files List:
46    View torrent files >
Uploader:
UTRCorp
Torrent added: July 4, 2018, 10:55 am
Tags: utr, joybell, GoT, jon, snow, hodor, best, show, ever
Users rating: ---, not rated. please login to rate.

Download Game of Thrones (2011) Season 01 S01 (2160p BluRay x265 HEVC 10bit AAC 7.1 Joy) [UTR] torrent



Torrent Description








Media Information

Media Information

Code:

General
Format : Matroska
Format version : Version 4 / Version 2
File size : 2.12 GiB
Duration : 1 h 1 min
Overall bit rate : 4 911 kb/s
Encoded date : UTC 2018-06-19 18:30:42
Writing application : mkvmerge v14.0.0 ('Flow') 64bit
Writing library : libebml v1.3.4 + libmatroska v1.4.5
Writing frontend : StaxRip v1.6.0.1

Video
ID : 1
Format : HEVC
Format/Info : High Efficiency Video Coding
Format profile : Main @Main
Codec ID : V_MPEGH/ISO/HEVC
Duration : 1 h 1 min
Bit rate : 4 009 kb/s
Width : 3 840 pixels
Height : 2 160 pixels
Display aspect ratio : 16:9
Frame rate mode : Constant
Frame rate : 23.976 (24000/1001) FPS
Color space : YUV
Chroma subsampling : 4:2:0
Bit depth : 10 bits
Bits/(Pixel*Frame) : 0.020
Stream size : 1.73 GiB (82%)
Writing library : x265 2.7+2-22c127ff05d5:[Windows][MSVC 1900][64 bit] 10bit
Encoding settings : cpuid=1173503 / frame-threads=3 / numa-pools=8 / wpp / no-pmode / no-pme / no-psnr / ssim / log-level=2 / input-csp=1 / input-res=3840x2160 / interlace=0 / total-frames=88714 / level-idc=0 / high-tier=1 / uhd-bd=0 / ref=3 / no-allow-non-conformance / no-repeat-headers / annexb / no-aud / no-hrd / info / hash=0 / no-temporal-layers / open-gop / min-keyint=23 / keyint=250 / gop-lookahead=0 / bframes=8 / b-adapt=2 / b-pyramid / bframe-bias=0 / rc-lookahead=50 / lookahead-slices=8 / scenecut=40 / radl=0 / no-intra-refresh / ctu=64 / min-cu-size=8 / rect / no-amp / max-tu-size=32 / tu-inter-depth=1 / tu-intra-depth=1 / limit-tu=0 / rdoq-level=1 / dynamic-rd=0.00 / ssim-rd / signhide / no-tskip / nr-intra=0 / nr-inter=0 / no-constrained-intra / strong-intra-smoothing / max-merge=2 / limit-refs=3 / no-limit-modes / me=1 / subme=2 / merange=57 / temporal-mvp / weightp / weightb / no-analyze-src-pics / deblock=0:0 / sao / no-sao-non-deblock / rd=5 / no-early-skip / rskip / no-fast-intra / no-tskip-fast / no-cu-lossless / b-intra / no-splitrd-skip / rdpenalty=0 / psy-rd=0.00 / psy-rdoq=0.00 / no-rd-refine / no-lossless / cbqpoffs=0 / crqpoffs=0 / rc=abr / bitrate=4000 / qcomp=0.60 / qpstep=4 / stats-write=0 / stats-read=2 / cplxblur=20.0 / qblur=0.5 / ipratio=1.40 / pbratio=1.30 / aq-mode=3 / aq-strength=1.00 / cutree / zone-count=0 / no-strict-cbr / qg-size=32 / no-rc-grain / qpmax=69 / qpmin=0 / no-const-vbv / sar=0 / overscan=0 / videoformat=5 / range=0 / colorprim=2 / transfer=2 / colormatrix=2 / chromaloc=0 / display-window=0 / max-cll=0,0 / min-luma=0 / max-luma=1023 / log2-max-poc-lsb=8 / vui-timing-info / vui-hrd-info / slices=1 / no-opt-qp-pps / no-opt-ref-list-length-pps / multi-pass-opt-rps / scenecut-bias=0.05 / no-opt-cu-delta-qp / no-aq-motion / no-hdr / no-hdr-opt / no-dhdr10-opt / analysis-reuse-level=5 / scale-factor=0 / refine-intra=0 / refine-inter=0 / refine-mv=0 / no-limit-sao / ctu-info=0 / no-lowpass-dct / refine-mv-type=0 / copy-pic=1
Default : Yes
Forced : No

Audio #1
ID : 2
Format : AAC
Format/Info : Advanced Audio Codec
Format profile : LC
Codec ID : A_AAC
Duration : 1 h 1 min
Bit rate : 454 kb/s
Channel(s) : 7 channels
Channel(s)_Original : 8 channels
Channel positions : Front: L C R, Side: L R, Back: L R, LFE
Sampling rate : 48.0 kHz
Frame rate : 46.875 FPS (1024 spf)
Compression mode : Lossy
Delay relative to video : 9 ms
Stream size : 200 MiB (9%)
Language : English
Default : No
Forced : No

Audio #2
ID : 3
Format : AAC
Format/Info : Advanced Audio Codec
Format profile : HE-AAC / LC
Codec ID : A_AAC
Duration : 1 h 1 min
Bit rate : 53.3 kb/s
Channel(s) : 2 channels
Channel positions : Front: L R
Sampling rate : 48.0 kHz / 24.0 kHz
Frame rate : 23.438 FPS (1024 spf)
Compression mode : Lossy
Delay relative to video : 31 ms
Stream size : 23.5 MiB (1%)
Title : Commentary by director Ryan Coogler and production designer Hannah Beachler
Language : English
Default : No
Forced : No

Audio #3
ID : 4
Format : AAC
Format/Info : Advanced Audio Codec
Format profile : LC
Codec ID : A_AAC
Duration : 1 h 1 min
Bit rate : 92.5 kb/s
Channel(s) : 2 channels
Channel positions : Front: L R
Sampling rate : 48.0 kHz
Frame rate : 46.875 FPS (1024 spf)
Compression mode : Lossy
Delay relative to video : 9 ms
Stream size : 40.8 MiB (2%)
Language : French
Default : No
Forced : No

Audio #4
ID : 5
Format : AAC
Format/Info : Advanced Audio Codec
Format profile : LC
Codec ID : A_AAC
Duration : 1 h 1 min
Bit rate : 93.4 kb/s
Channel(s) : 2 channels
Channel positions : Front: L R
Sampling rate : 48.0 kHz
Frame rate : 46.875 FPS (1024 spf)
Compression mode : Lossy
Delay relative to video : 9 ms
Stream size : 41.2 MiB (2%)
Language : Spanish
Default : No
Forced : No

Audio #5
ID : 6
Format : AAC
Format/Info : Advanced Audio Codec
Format profile : LC
Codec ID : A_AAC
Duration : 1 h 1 min
Bit rate : 92.3 kb/s
Channel(s) : 2 channels
Channel positions : Front: L R
Sampling rate : 48.0 kHz
Frame rate : 46.875 FPS (1024 spf)
Compression mode : Lossy
Delay relative to video : 9 ms
Stream size : 40.7 MiB (2%)
Language : German
Default : No
Forced : No

Subtitle #1
ID : 7
Format : PGS
Muxing mode : zlib
Codec ID : S_HDMV/PGS
Codec ID/Info : Picture based subtitle format used on BDs/HD-DVDs
Duration : 1 h 0 min
Bit rate : 33.7 kb/s
Count of elements : 1290
Stream size : 14.5 MiB (1%)
Language : English
Default : No
Forced : No

Subtitle #2
ID : 8
Format : VobSub
Muxing mode : zlib
Codec ID : S_VOBSUB
Codec ID/Info : Picture based subtitle format used on DVDs
Duration : 58 min 29 s
Bit rate : 7 287 b/s
Count of elements : 551
Stream size : 3.05 MiB (0%)
Language : French
Default : No
Forced : No

Subtitle #3
ID : 9
Format : VobSub
Muxing mode : zlib
Codec ID : S_VOBSUB
Codec ID/Info : Picture based subtitle format used on DVDs
Duration : 58 min 29 s
Bit rate : 7 053 b/s
Count of elements : 552
Stream size : 2.95 MiB (0%)
Language : Spanish
Default : No
Forced : No

Subtitle #4
ID : 10
Format : VobSub
Muxing mode : zlib
Codec ID : S_VOBSUB
Codec ID/Info : Picture based subtitle format used on DVDs
Duration : 58 min 29 s
Bit rate : 7 099 b/s
Count of elements : 552
Stream size : 2.97 MiB (0%)
Language : Spanish
Default : No
Forced : No

Subtitle #5
ID : 11
Format : VobSub
Muxing mode : zlib
Codec ID : S_VOBSUB
Codec ID/Info : Picture based subtitle format used on DVDs
Duration : 58 min 29 s
Bit rate : 8 465 b/s
Count of elements : 551
Stream size : 3.54 MiB (0%)
Language : German
Default : No
Forced : No

Subtitle #6
ID : 12
Format : VobSub
Muxing mode : zlib
Codec ID : S_VOBSUB
Codec ID/Info : Picture based subtitle format used on DVDs
Duration : 1 h 0 min
Bit rate : 7 384 b/s
Count of elements : 648
Stream size : 3.18 MiB (0%)
Language : Italian
Default : No
Forced : No

Subtitle #7
ID : 13
Format : VobSub
Muxing mode : zlib
Codec ID : S_VOBSUB
Codec ID/Info : Picture based subtitle format used on DVDs
Duration : 58 min 29 s
Bit rate : 6 454 b/s
Count of elements : 551
Stream size : 2.70 MiB (0%)
Language : Portuguese
Default : No
Forced : No

Subtitle #8
ID : 14
Format : VobSub
Muxing mode : zlib
Codec ID : S_VOBSUB
Codec ID/Info : Picture based subtitle format used on DVDs
Duration : 57 min 13 s
Bit rate : 6 726 b/s
Count of elements : 450
Stream size : 2.75 MiB (0%)
Language : Czech
Default : No
Forced : No

Subtitle #9
ID : 15
Format : VobSub
Muxing mode : zlib
Codec ID : S_VOBSUB
Codec ID/Info : Picture based subtitle format used on DVDs
Duration : 58 min 20 s
Bit rate : 7 051 b/s
Count of elements : 534
Stream size : 2.94 MiB (0%)
Language : Hungarian
Default : No
Forced : No

Subtitle #10
ID : 16
Format : VobSub
Muxing mode : zlib
Codec ID : S_VOBSUB
Codec ID/Info : Picture based subtitle format used on DVDs
Duration : 58 min 23 s
Bit rate : 5 566 b/s
Count of elements : 472
Stream size : 2.32 MiB (0%)
Language : Polish
Default : No
Forced : No

Subtitle #11
ID : 17
Format : VobSub
Muxing mode : zlib
Codec ID : S_VOBSUB
Codec ID/Info : Picture based subtitle format used on DVDs
Duration : 58 min 28 s
Bit rate : 7 175 b/s
Count of elements : 582
Stream size : 3.00 MiB (0%)
Language : Russian
Default : No
Forced : No

Subtitle #12
ID : 18
Format : VobSub
Muxing mode : zlib
Codec ID : S_VOBSUB
Codec ID/Info : Picture based subtitle format used on DVDs
Duration : 58 min 29 s
Bit rate : 6 706 b/s
Count of elements : 538
Stream size : 2.81 MiB (0%)
Language : Dutch
Default : No
Forced : No

Subtitle #13
ID : 19
Format : VobSub
Muxing mode : zlib
Codec ID : S_VOBSUB
Codec ID/Info : Picture based subtitle format used on DVDs
Duration : 58 min 29 s
Bit rate : 7 086 b/s
Count of elements : 551
Stream size : 2.96 MiB (0%)
Language : Danish
Default : No
Forced : No

Subtitle #14
ID : 20
Format : VobSub
Muxing mode : zlib
Codec ID : S_VOBSUB
Codec ID/Info : Picture based subtitle format used on DVDs
Duration : 58 min 29 s
Bit rate : 6 066 b/s
Count of elements : 552
Stream size : 2.54 MiB (0%)
Language : Finnish
Default : No
Forced : No

Subtitle #15
ID : 21
Format : VobSub
Muxing mode : zlib
Codec ID : S_VOBSUB
Codec ID/Info : Picture based subtitle format used on DVDs
Duration : 58 min 29 s
Bit rate : 6 697 b/s
Count of elements : 552
Stream size : 2.80 MiB (0%)
Language : Norwegian Bokmal
Default : No
Forced : No

Subtitle #16
ID : 22
Format : VobSub
Muxing mode : zlib
Codec ID : S_VOBSUB
Codec ID/Info : Picture based subtitle format used on DVDs
Duration : 58 min 29 s
Bit rate : 6 607 b/s
Count of elements : 552
Stream size : 2.76 MiB (0%)
Language : Swedish
Default : No
Forced : No

Subtitle #17
ID : 23
Format : VobSub
Muxing mode : zlib
Codec ID : S_VOBSUB
Codec ID/Info : Picture based subtitle format used on DVDs
Duration : 57 min 13 s
Bit rate : 6 718 b/s
Count of elements : 383
Stream size : 2.75 MiB (0%)
Language : Croatian
Default : No
Forced : No

Subtitle #18
ID : 24
Format : VobSub
Muxing mode : zlib
Codec ID : S_VOBSUB
Codec ID/Info : Picture based subtitle format used on DVDs
Duration : 59 min 35 s
Bit rate : 8 180 b/s
Count of elements : 559
Stream size : 3.49 MiB (0%)
Language : Greek
Default : No
Forced : No

Subtitle #19
ID : 25
Format : VobSub
Muxing mode : zlib
Codec ID : S_VOBSUB
Codec ID/Info : Picture based subtitle format used on DVDs
Duration : 58 min 20 s
Bit rate : 4 890 b/s
Count of elements : 431
Stream size : 2.04 MiB (0%)
Language : Hebrew
Default : No
Forced : No

Subtitle #20
ID : 26
Format : VobSub
Muxing mode : zlib
Codec ID : S_VOBSUB
Codec ID/Info : Picture based subtitle format used on DVDs
Duration : 58 min 28 s
Bit rate : 7 717 b/s
Count of elements : 511
Stream size : 3.23 MiB (0%)
Language : Portuguese
Default : No
Forced : No

Subtitle #21
ID : 27
Format : VobSub
Muxing mode : zlib
Codec ID : S_VOBSUB
Codec ID/Info : Picture based subtitle format used on DVDs
Duration : 57 min 13 s
Bit rate : 7 230 b/s
Count of elements : 501
Stream size : 2.96 MiB (0%)
Language : Romanian
Default : No
Forced : No

Subtitle #22
ID : 28
Format : VobSub
Muxing mode : zlib
Codec ID : S_VOBSUB
Codec ID/Info : Picture based subtitle format used on DVDs
Duration : 57 min 14 s
Bit rate : 6 639 b/s
Count of elements : 383
Stream size : 2.72 MiB (0%)
Language : Slovenian
Default : No
Forced : No

Subtitle #23
ID : 29
Format : VobSub
Muxing mode : zlib
Codec ID : S_VOBSUB
Codec ID/Info : Picture based subtitle format used on DVDs
Duration : 58 min 29 s
Bit rate : 7 607 b/s
Count of elements : 552
Stream size : 3.18 MiB (0%)
Language : Turkish
Default : No
Forced : No

Subtitle #24
ID : 30
Format : VobSub
Muxing mode : zlib
Codec ID : S_VOBSUB
Codec ID/Info : Picture based subtitle format used on DVDs
Duration : 58 min 29 s
Bit rate : 5 078 b/s
Count of elements : 564
Stream size : 2.12 MiB (0%)
Language : Chinese
Default : No
Forced : No

Subtitle #25
ID : 31
Format : VobSub
Muxing mode : zlib
Codec ID : S_VOBSUB
Codec ID/Info : Picture based subtitle format used on DVDs
Duration : 57 min 13 s
Bit rate : 5 101 b/s
Count of elements : 528
Stream size : 2.09 MiB (0%)
Language : Korean
Default : No
Forced : No

Subtitle #26
ID : 32
Format : VobSub
Muxing mode : zlib
Codec ID : S_VOBSUB
Codec ID/Info : Picture based subtitle format used on DVDs
Duration : 58 min 29 s
Bit rate : 5 780 b/s
Count of elements : 553
Stream size : 2.42 MiB (0%)
Language : Thai
Default : No
Forced : No

Menu
00:00:00.000 : en:Chapter 1
00:00:08.008 : en:Chapter 2
00:07:18.438 : en:Chapter 3
00:08:58.538 : en:Chapter 4
00:18:16.512 : en:Chapter 5
00:28:48.560 : en:Chapter 6
00:39:37.583 : en:Chapter 7
00:50:02.040 : en:Chapter 8
01:00:34.631 : en:Chapter 9



Source Information

Code:

Release:
Game.of.Thrones.S01.2160p.UHD.BluRay.HDR.HEVC.Atmos-HDBEE (331GB)



Download Game of Thrones (2011) Season 01 S01 (2160p BluRay x265 HEVC 10bit AAC 7.1 Joy) [UTR] torrent


Related Torrents


Comments   (please login to add your comment!)

zim     naughty megan     5068     dal tramonto allalba     tittyattack ivy rose     tori fox     video creation     136     meyd 2     game of thrones 10bit     invitation only 2009     hindi 2017     luv     sexe ultime     the best dad is     russian teen anal virgins     ant man     negative     hyper light drifter     2160p x264     the mick s02e16     naswari     ottobre     momslickteens     


Home - Browse Torrents

Made with love by an Extratorrent Fan!