extratorrent - A Fan Made Alternative Login   |   Register
Important Information
Registrations are open now
-------------------------------------

Please click here to register with Extratorrent2 to recieve latest updates, add bookmarks and to post comments.

Friends
Friends

1) ProxyFix

Extratorrent2 > Categories > TV > Game of Thrones (2011) Season 01 S01 (1080p BluRay x265 HEVC 10bit AAC 5.1 Joy) [UTR] torrent


Browse TV torrents

Game of Thrones (2011) Season 01 S01 (1080p BluRay x265 HEVC 10bit AAC 5.1 Joy) [UTR] torrent


Download torrent: Download Game of Thrones (2011) Season 01 S01 (1080p BluRay x265 HEVC 10bit AAC 5.1 Joy) [UTR] torrent Magnet link Bookmark Torrent: Game of Thrones (2011) Season 01 S01 (1080p BluRay x265 HEVC 10bit AAC 5.1 Joy) [UTR]   Game of Thrones (2011) Season 01 S01 (1080p BluRay x265 HEVC 10bit AAC 5.1 Joy) [UTR] torrent
Info hash: 2348BAC89113011FADE4B7EEF5DC34C73BBA95C1
Category: Categories > TV
Trackers:
View all torrent trackers >
Health:
 seeds: 3 ,  leechers: 13 |  Update >
Torrent language: Creating the Dorhraki Language.mkv (36.6 MB) Creating the Dorhraki Language.mkv (36.6 MB)
Total Size: 9.5 GB
Files List:
50    View torrent files >
Uploader:
UTRCorp
Torrent added: July 6, 2018, 3:08 pm
Tags: utr, joybell
Users rating: ---, not rated. please login to rate.

Download Game of Thrones (2011) Season 01 S01 (1080p BluRay x265 HEVC 10bit AAC 5.1 Joy) [UTR] torrent



Torrent Description








Media Information

Media Information

Code:

General
Format : Matroska
Format version : Version 4 / Version 2
File size : 899 MiB
Duration : 1 h 1 min
Overall bit rate : 2 040 kb/s
Encoded date : UTC 2015-06-08 16:48:21
Writing application : mkvmerge v7.9.0 ('Birds') 64bit
Writing library : libebml v1.3.1 + libmatroska v1.4.2 / Lavf55.12.0

Video
ID : 17
Format : HEVC
Format/Info : High Efficiency Video Coding
Format profile : Main @Main
Codec ID : V_MPEGH/ISO/HEVC
Duration : 1 h 1 min
Bit rate : 1 502 kb/s
Width : 1 920 pixels
Height : 1 080 pixels
Display aspect ratio : 16:9
Frame rate mode : Constant
Frame rate : 23.976 (24000/1001) FPS
Original frame rate : 23.976 (23976/1000) FPS
Color space : YUV
Chroma subsampling : 4:2:0
Bit depth : 10 bits
Bits/(Pixel*Frame) : 0.030
Stream size : 662 MiB (74%)
Writing library : x265 1.7+2-d7b100e51e82:[Windows][GCC 4.8.2][64 bit] 16bpp
Encoding settings : wpp / ctu=64 / min-cu-size=8 / max-tu-size=32 / tu-intra-depth=1 / tu-inter-depth=1 / me=1 / subme=2 / merange=57 / no-rect / no-amp / max-merge=2 / temporal-mvp / no-early-skip / rdpenalty=0 / no-tskip / no-tskip-fast / strong-intra-smoothing / no-lossless / no-cu-lossless / no-constrained-intra / no-fast-intra / open-gop / no-temporal-layers / interlace=0 / keyint=250 / min-keyint=23 / scenecut=40 / rc-lookahead=20 / lookahead-slices=0 / bframes=4 / bframe-bias=0 / b-adapt=2 / ref=3 / weightp / no-weightb / aq-mode=1 / aq-strength=1.00 / cbqpoffs=0 / crqpoffs=0 / rd=3 / psy-rd=0.30 / rdoq-level=0 / psy-rdoq=0.00 / signhide / deblock / sao / no-sao-non-deblock / b-pyramid / cutree / rc=2 / pass / bitrate=1500 / qcomp=0.60 / qpmin=0 / qpmax=51 / qpstep=4 / cplxblur=20.0 / qblur=0.5 / ipratio=1.40 / pbratio=1.30
Default : Yes
Forced : No

Audio #1
ID : 1
Format : AAC
Format/Info : Advanced Audio Codec
Format profile : HE-AAC / LC
Codec ID : A_AAC
Duration : 1 h 1 min
Bit rate : 192 kb/s
Channel(s) : 6 channels
Channel positions : Front: L C R, Side: L R, LFE
Sampling rate : 48.0 kHz / 24.0 kHz
Frame rate : 23.438 FPS (1024 spf)
Compression mode : Lossy
Stream size : 84.6 MiB (9%)
Title : Surround
Language : English
Default : Yes
Forced : No

Audio #2
ID : 2
Format : AAC
Format/Info : Advanced Audio Codec
Format profile : HE-AAC / LC
Codec ID : A_AAC
Duration : 1 h 1 min
Bit rate : 64.0 kb/s
Channel(s) : 2 channels
Channel positions : Front: L R
Sampling rate : 48.0 kHz / 24.0 kHz
Frame rate : 23.438 FPS (1024 spf)
Compression mode : Lossy
Stream size : 28.2 MiB (3%)
Title : Stereo
Language : English
Default : No
Forced : No

Audio #3
ID : 3
Format : AAC
Format/Info : Advanced Audio Codec
Format profile : HE-AAC / LC
Codec ID : A_AAC
Duration : 1 h 1 min
Bit rate : 96.0 kb/s
Channel(s) : 2 channels
Channel positions : Front: L R
Sampling rate : 48.0 kHz / 24.0 kHz
Frame rate : 23.438 FPS (1024 spf)
Compression mode : Lossy
Stream size : 42.3 MiB (5%)
Title : Stereo
Language : French
Default : No
Forced : No

Audio #4
ID : 4
Format : AAC
Format/Info : Advanced Audio Codec
Format profile : HE-AAC / LC
Codec ID : A_AAC
Duration : 1 h 1 min
Bit rate : 96.0 kb/s
Channel(s) : 2 channels
Channel positions : Front: L R
Sampling rate : 48.0 kHz / 24.0 kHz
Frame rate : 23.438 FPS (1024 spf)
Compression mode : Lossy
Stream size : 42.3 MiB (5%)
Title : Stereo
Language : Spanish
Default : No
Forced : No

Subtitle #1
ID : 5
Format : PGS
Muxing mode : zlib
Codec ID : S_HDMV/PGS
Codec ID/Info : Picture based subtitle format used on BDs/HD-DVDs
Duration : 1 h 0 min
Bit rate : 9 418 b/s
Count of elements : 1290
Stream size : 4.06 MiB (0%)
Language : English
Default : No
Forced : No

Subtitle #2
ID : 6
Format : PGS
Muxing mode : zlib
Codec ID : S_HDMV/PGS
Codec ID/Info : Picture based subtitle format used on BDs/HD-DVDs
Duration : 58 min 29 s
Bit rate : 8 542 b/s
Count of elements : 1102
Stream size : 3.57 MiB (0%)
Language : French
Default : No
Forced : No

Subtitle #3
ID : 7
Format : PGS
Muxing mode : zlib
Codec ID : S_HDMV/PGS
Codec ID/Info : Picture based subtitle format used on BDs/HD-DVDs
Duration : 58 min 29 s
Bit rate : 8 507 b/s
Count of elements : 1104
Stream size : 3.56 MiB (0%)
Language : Spanish
Default : No
Forced : No

Subtitle #4
ID : 8
Format : PGS
Muxing mode : zlib
Codec ID : S_HDMV/PGS
Codec ID/Info : Picture based subtitle format used on BDs/HD-DVDs
Duration : 58 min 29 s
Bit rate : 8 652 b/s
Count of elements : 1104
Stream size : 3.62 MiB (0%)
Language : Spanish
Default : No
Forced : No

Subtitle #5
ID : 9
Format : PGS
Muxing mode : zlib
Codec ID : S_HDMV/PGS
Codec ID/Info : Picture based subtitle format used on BDs/HD-DVDs
Duration : 58 min 29 s
Bit rate : 8 168 b/s
Count of elements : 1102
Stream size : 3.42 MiB (0%)
Language : Portuguese
Default : No
Forced : No

Subtitle #6
ID : 10
Format : PGS
Muxing mode : zlib
Codec ID : S_HDMV/PGS
Codec ID/Info : Picture based subtitle format used on BDs/HD-DVDs
Duration : 58 min 23 s
Bit rate : 7 392 b/s
Count of elements : 944
Stream size : 3.09 MiB (0%)
Language : Polish
Default : No
Forced : No

Subtitle #7
ID : 11
Format : PGS
Muxing mode : zlib
Codec ID : S_HDMV/PGS
Codec ID/Info : Picture based subtitle format used on BDs/HD-DVDs
Duration : 58 min 29 s
Bit rate : 7 897 b/s
Count of elements : 1076
Stream size : 3.30 MiB (0%)
Language : Dutch
Default : No
Forced : No

Subtitle #8
ID : 12
Format : PGS
Muxing mode : zlib
Codec ID : S_HDMV/PGS
Codec ID/Info : Picture based subtitle format used on BDs/HD-DVDs
Duration : 58 min 29 s
Bit rate : 8 612 b/s
Count of elements : 1102
Stream size : 3.60 MiB (0%)
Language : Danish
Default : No
Forced : No

Subtitle #9
ID : 13
Format : PGS
Muxing mode : zlib
Codec ID : S_HDMV/PGS
Codec ID/Info : Picture based subtitle format used on BDs/HD-DVDs
Duration : 58 min 29 s
Bit rate : 6 988 b/s
Count of elements : 1104
Stream size : 2.92 MiB (0%)
Language : Finnish
Default : No
Forced : No

Subtitle #10
ID : 14
Format : PGS
Muxing mode : zlib
Codec ID : S_HDMV/PGS
Codec ID/Info : Picture based subtitle format used on BDs/HD-DVDs
Duration : 58 min 29 s
Bit rate : 8 071 b/s
Count of elements : 1104
Stream size : 3.38 MiB (0%)
Language : Norwegian
Default : No
Forced : No

Subtitle #11
ID : 15
Format : PGS
Muxing mode : zlib
Codec ID : S_HDMV/PGS
Codec ID/Info : Picture based subtitle format used on BDs/HD-DVDs
Duration : 58 min 29 s
Bit rate : 8 083 b/s
Count of elements : 1104
Stream size : 3.38 MiB (0%)
Language : Swedish
Default : No
Forced : No

Subtitle #12
ID : 16
Format : PGS
Muxing mode : zlib
Codec ID : S_HDMV/PGS
Codec ID/Info : Picture based subtitle format used on BDs/HD-DVDs
Bit rate : 0 b/s
Count of elements : 0
Stream size : 0.00 Byte (0%)
Language : English
Default : Yes
Forced : No

Menu
00:00:00.000 : :Chapter 1
00:00:05.547 : :Chapter 2
00:07:15.852 : :Chapter 3
00:08:56.536 : :Chapter 4
00:18:14.552 : :Chapter 5
00:28:46.600 : :Chapter 6
00:39:35.623 : :Chapter 7
00:50:00.080 : :Chapter 8
01:00:32.587 : :Chapter 9



Source Information

Code:

Release:
Blu-ray set in hand



Download Game of Thrones (2011) Season 01 S01 (1080p BluRay x265 HEVC 10bit AAC 5.1 Joy) [UTR] torrent


Related Torrents


Comments   (please login to add your comment!)


Home - Browse Torrents

Made with love by an Extratorrent Fan!